Hachimitsu no Hana | Mushishi | Solo.A.Star....5-ENDSTATiON

Laila Majnu 2018 Hindi 720p HDRip x264 A Torrent Free Download

Seeders : 17   &   Leechers : 674      09-11-2018 (5 days)
Laila Majnu 2018 Hindi 720p HDRip x264 A Torrent Download
Added: ago by SkTara ***** in Movies   1.3 GB   Hits : 16
Info Hash: E2053A49BBD829D695B79B9B8FFAB3FAC54DE01D Download
Laila Majnu 2018 Hindi 720p HDRip x264 A Torrent Download

Anonymous and Direct Download movies , software , shows...

Fast Safe Anonymous
movies, software, shows...
Laila Majnu
Drama /Romance  .   140 min   8.3/10
Director : Sajid Ali  
Writer: Imtiaz Ali  Sajid Ali  
Tags: Laila  Majnu  2018  Hindi  720p  HDRip  

Released:
07 Sep 2018
Taking the leap out of the classic folklore, the story is set in today's time in Kashmir where Laila Majnu have problems relevant to the youth of today. While dealing with their feuding families a passionate love story unravels.

Torrent Description




Laila Majnu 2018 Hindi 720p HDRip x264 AAC { TaRa }.mkv


===================================================================
General
Complete name : Laila Majnu 2018 Hindi 720p HDRip x264 AAC { TaRa }.mkv
Format : Matroska
Format version : Version 4
File size : 1.29 GiB
Duration : 2 h 12 min
Overall bit rate : 1 393 kb/s
===================================================================
Video
ID : 1
Format : AVC
Format/Info : Advanced Video Codec
Format profile : [email protected]
Format settings : CABAC / 4 Ref Frames
Format settings, CABAC : Yes
Format settings, ReFrames : 4 frames
Codec ID : V_MPEG4/ISO/AVC
Duration : 2 h 12 min
Bit rate : 1 266 kb/s
Width : 1 280 pixels
Height : 544 pixels
Display aspect ratio : 2.35:1
Frame rate mode : Constant
Frame rate : 25.000 FPS
Color space : YUV
Chroma subsampling : 4:2:0
Bit depth : 8 bits
Scan type : Progressive
Bits/(Pixel*Frame) : 0.073
Stream size : 1.17 GiB (91%)
Title : .....::::: TaRa :::::.....
Language : Hindi
Default : Yes
Forced : No
===================================================================
Audi=
ID : 2
Format : AAC LC
Format/Info : Advanced Audio Codec Low Complexity
Codec ID : A_AAC-2
Duration : 2 h 12 min
Bit rate : 125 kb/s
Channel(s) : 2 channels
Channel layout : L R
Sampling rate : 48.0 kHz
Frame rate : 46.875 FPS (1024 SPF)
Compression mode : Lossy
Delay relative to video : -21 ms
Stream size : 118 MiB (9%)
Title : .....::::: TaRa :::::.....
Language : Hindi
Default : Yes
Forced : No
===================================================================










































Sharing Widget


No Comments For This Torrent . Be The First to Comment

You must Login to Comment . Click Here to Login

Menu 1

Some content in menu 1.

Laila Majnu 2018 Hindi 720p HDRip x264 AAC { TaRa } mkv (Size: 1.3 GB)
  Laila Majnu 2018 Hindi 720p HDRip x264 AAC { TaRa } mkv 1.3 GB
tracker name
udp://tracker.leechers-paradise.org:6969/announce
udp://zer0day.ch:1337/announce
udp://open.demonii.com:1337/announce
udp://tracker.coppersurfer.tk:6969/announce
udp://exodus.desync.com:6969/announce
µTorrent compatible trackers list

Relative Torrents

Torrent Name Size Age SEED LEECH
The Little Stranger (2018) 1080p WEB-DL EVC 5 1 Omikron
Posted by    OmiChannel   in   Movies
2.3 GB 5 minutes 13 134
WWE NXT 2018 11 14 WEB h264-HEEL[TGx]
Posted by    mazemaze16   in   TV
671.7 MB 7 minutes 126 676
The Jimi Hendrix Experience - Electric Ldyland (50th Anniversary Deluxe Edition
Posted by    Freak37   in   Music
1.3 GB 11 minutes 153 395
The Bisexual S01E06 HDTV x264-MTB[TGx]
Posted by    mazemaze16   in   TV
136.8 MB 17 minutes 643 619
The Bisexual S01E06 720p HDTV x264-MTB [ztv]
Posted by    EZTVag   in   TV
452.7 MB 17 minutes 254 396