Descargar APK | تحميل XAPK | SMC AR20-F01BE-Y / AR20 F01BE Y / AR20F01BEY, pressure regulator

Laila Majnu (2018) Hindi 720p WEB-HD AVC Torrent Free Download

Seeders : 464   &   Leechers : 649      09-11-2018 (6 days)
Laila Majnu (2018) Hindi 720p WEB-HD AVC Torrent Download
Added: ago by Sungeorge ***** in Movies   1.4 GB   Hits : 19
Info Hash: C2A7267065C3A7E5919AB19FBB0C1FCEDF7DCC48 Download
Laila Majnu (2018) Hindi 720p WEB-HD AVC Torrent Download

Anonymous and Direct Download movies , software , shows...

Fast Safe Anonymous
movies, software, shows...
Laila Majnu
Drama /Romance  .   140 min   8.3/10
Director : Sajid Ali  
Writer: Imtiaz Ali  Sajid Ali  
Tags: Laila  Majnu  (2018)  Hindi  720p  WEB-HD  

Released:
07 Sep 2018
Taking the leap out of the classic folklore, the story is set in today's time in Kashmir where Laila Majnu have problems relevant to the youth of today. While dealing with their feuding families a passionate love story unravels.

Torrent Description



Laila Majnu (2018) Hindi 720p WEB-HD AVC AAC-Sun George



http://www.imdb.com/title/tt8011276/






===================================================================


General
Format : Matroska
Format version : Version 4 / Version 2
File size : 1.38 GiB
Duration : 2 h 12 min
Overall bit rate : 1 500 kb/s
Movie name : Laila Majnu (2018) Hindi 720p WEB-HD AVC AAC-Sun George


===================================================================


Video
ID : 1
Format : AVC
Format/Info : Advanced Video Codec
Format profile : [email protected]
Format settings : CABAC / 4 Ref Frames
Format settings, CABAC : Yes
Format settings, RefFrames : 4 frames
Codec ID : V_MPEG4/ISO/AVC
Duration : 2 h 12 min
Bit rate : 1 248 kb/s
Width : 1 280 pixels
Height : 720 pixels
Display aspect ratio : 16:9
Frame rate mode : Variable
Frame rate : 25.000 FPS
Color space : YUV
Chroma subsampling : 4:2:0
Bit depth : 8 bits
Scan type : Progressive
Bits/(Pixel*Frame) : 0.054
Stream size : 1.15 GiB (83%)
Title : Sun George


===================================================================


Audio
ID : 2
Format : AAC
Format/Info : Advanced Audio Codec
Format profile : LC
Codec ID : A_AAC-2
Duration : 2 h 12 min
Bit rate : 249 kb/s
Channel(s) : 2 channels
Channel positions : Front: L R
Sampling rate : 48.0 kHz
Frame rate : 46.875 FPS (1024 SPF)
Compression mode : Lossy
Stream size : 236 MiB (17%)
Title : Sun George
Writing library : Lavc57.42.100 aac
Language : Hindi
Default : Yes
Forced : No















Sharing Widget


No Comments For This Torrent . Be The First to Comment

You must Login to Comment . Click Here to Login

Menu 1

Some content in menu 1.

Laila Majnu (2018) Hindi 720p WEB-HD AVC AAC-Sun George (Size: 1.4 GB)
  Laila Majnu (2018) Hindi 720p WEB-HD AVC AAC-Sun George 1.4 GB
tracker name
udp://tracker.leechers-paradise.org:6969/announce
udp://zer0day.ch:1337/announce
udp://open.demonii.com:1337/announce
udp://tracker.coppersurfer.tk:6969/announce
udp://exodus.desync.com:6969/announce
µTorrent compatible trackers list

Relative Torrents

Torrent Name Size Age SEED LEECH
Mission Impossible Fallout 2018 BONUS DIC 720p BluRay x264 DD2 0-FGT
Posted by    Trige   in   Movies
2.3 GB 1 minute 93 254
The Princess Switch 2018 720p WEBRip Xvi AC3-FGT
Posted by    Trige   in   Movies
3.0 GB 1 minute 451 869
The Ballad of Buster Scruggs 2018 720p WBRip XviD AC3-FGT
Posted by    Trige   in   Movies
3.7 GB 1 minute 967 648
American Horror Story S08 720p AMZN WEBRp DDP5 1 x264-NTb
Posted by    Trige   in   TV
6.3 GB 3 minutes 29 269
Mirzapur (2018) Season 01 All 09 Episode480p WEB-DL x264 MP3 ESub Hindi 1 30GB
Posted by    CrazzyBoy   in   Movies
1.3 GB 10 minutes 521 294