15x12 Las Kardashian | vidbom VF BDRIP | Ishida to Asakura English Subbed

This Is Our Christmas 2018 Movies HDRip Torrent Free Download

Seeders : 519   &   Leechers : 121      09-11-2018 (5 days)
This Is Our Christmas 2018 Movies HDRip Torrent Download
Added: ago by nehalpuja ***** in Movies   766.8 MB   Hits : 23
Info Hash: 2648E3E6E9D5E34D78E3DAC74D40081BFD6EF47A Download
This Is Our Christmas 2018 Movies HDRip Torrent Download

Anonymous and Direct Download movies , software , shows...

Fast Safe Anonymous
movies, software, shows...

Torrent Description



This Is Our Christmas 2018 Movies HDRip x264 5.1 with Sample ☻rDX☻
===============================================================================================

SCREEN SHOTS:



or

http://iphonehosting.eu/2018/11/a/namecheap/1.html

File size : 759 MiB
Duration : 1 h 19 min
Overall bit rate mode : Constant
Overall bit rate : 1 330 kb/s
Movie name : This Is Our Christmas 2018 Movies HDRip x264 5.1 ☻rDX☻

Video
ID : 2
Format : AVC
Format/Info : Advanced Video Codec
Format profile : [email protected]
Format settings, CABAC : Yes
Format settings, ReFrames : 2 frames
Format settings, GOP : M=1, N=12
Codec ID : V_MPEG4/ISO/AVC
Duration : 1 h 19 min
Bit rate mode : Constant
Bit rate : 1 139 kb/s
Width : 720 pixels
Height : 400 pixels
Display aspect ratio : 16:9
Frame rate mode : Constant
Frame rate : 23.976 FPS
Color space : YUV
Chroma subsampling : 4:2:0
Bit depth : 8 bits
Scan type : Progressive
Bits/(Pixel*Frame) : 0.165
Stream size : 634 MiB (84%)
Title : ☻rDX☻
Default : Yes
Forced : No

Audio
ID : 1
Format : AC-3
Format/Info : Audio Coding 3
Mode extension : CM (complete main)
Format settings, Endianness : Big
Codec ID : A_AC3
Duration : 1 h 19 min
Bit rate mode : Constant
Bit rate : 192 kb/s
Channel(s) : 6 channels
Channel positions : Front: L C R, Side: L R, LFE
Sampling rate : 44.1 kHz
Frame rate : 28.711 FPS (1536 spf)
Bit depth : 16 bits
Compression mode : Lossy
Stream size : 110 MiB (14%)
Title : ☻rDX☻
Default : Yes
Forced : No

http://www.imdb.com/title/tt6014166




Sharing Widget


No Comments For This Torrent . Be The First to Comment

You must Login to Comment . Click Here to Login

Menu 1

Some content in menu 1.

This Is Our Christmas 2018 Movies HDRip x264 5 1 with Sample ☻rDX☻ (Size: 766.8 MB)
  This Is Our Christmas 2018 Movies HDRip x264 5 1 with Sample ☻rDX☻ 766.8 MB
tracker name
udp://tracker.leechers-paradise.org:6969/announce
udp://zer0day.ch:1337/announce
udp://open.demonii.com:1337/announce
udp://tracker.coppersurfer.tk:6969/announce
udp://exodus.desync.com:6969/announce
µTorrent compatible trackers list

Relative Torrents

Torrent Name Size Age SEED LEECH
211 Rapina In Corso 2018 iTALiAN AC3 BDRp XviD-CB01 avi
Posted by    warama3andek   in   Movies
1.3 GB 5 minutes 534 963
Franklyn 2008 1080p BluRay x264 DTS-FGT
Posted by    Trige   in   Movies
9.7 GB 5 minutes 728 744
Western Union (Western 1941) Randolph cott 720p HDRip
Posted by    BurtonC   in   Movies
963.0 MB 5 minutes 805 951
Origin S01 COMPLETE 1080p HEVC x265-MeGuta
Posted by    SeekNDstroy   in   TV
5.9 GB 9 minutes 434 197
American Horror Story S08E10 WEB XviD-AVD[TGx]
Posted by    mazemaze16   in   TV
417.9 MB 9 minutes 899 537