Accupedo-Pro Pedometer - Step Counter Health & Fitness 3872 downloads | Inazuma Eleven: Orion no Kokuin Episode 5 | WATCH NOW!

Thugs Of Hindostan 2018 Hindi Movies PDV Torrent Free Download

Seeders : 687   &   Leechers : 990      09-11-2018 (5 days)
Thugs Of Hindostan 2018 Hindi Movies PDV Torrent Download
Added: ago by nehalpuja ***** in Movies   724.8 MB   Hits : 28
Info Hash: 2AB274DF5E994719241547829D559E0A73B36236 Download
Thugs Of Hindostan 2018 Hindi Movies PDV Torrent Download

Anonymous and Direct Download movies , software , shows...

Fast Safe Anonymous
movies, software, shows...
Thugs of Hindostan
Action /Adventure  .   164 min   N/A/10
Director : Vijay Krishna Acharya  
Writer: Vijay Krishna Acharya  
Tags: Thugs  Of  Hindostan  2018  Hindi  Movies  

Released:
08 Nov 2018
The film is set to treat audiences with the biggest jaw-dropping action sequences seen by audiences on screen to date. With its edge-of-the-seat thrills and an epic adventure and war on the seas, the film is set to light up this Diwali.

Torrent Description



Thugs Of Hindostan 2018 Hindi Movies PDVDRip x264 Clean Audio AAC New Source with Sample ☻rDX☻
===============================================================================================

SCREEN SHOTS:



or

http://iphonehosting.eu/2018/11/a/offline/1.html

File size : 717 MiB
Duration : 2 h 34 min
Overall bit rate : 647 kb/s
Movie name : Thugs Of Hindostan 2018 Hindi Movies PDVDRip x264 Clean Audio AAC New Source ☻rDX☻

Video
ID : 2
Format : AVC
Format/Info : Advanced Video Codec
Format profile : [email protected]
Format settings, CABAC : Yes
Format settings, ReFrames : 4 frames
Codec ID : V_MPEG4/ISO/AVC
Duration : 2 h 34 min
Bit rate : 548 kb/s
Width : 720 pixels
Height : 288 pixels
Display aspect ratio : 2.500
Frame rate mode : Constant
Frame rate : 25.000 FPS
Color space : YUV
Chroma subsampling : 4:2:0
Bit depth : 8 bits
Scan type : Progressive
Bits/(Pixel*Frame) : 0.106
Stream size : 596 MiB (83%)
Title : ☻rDX☻
Writing library : x264

Audio
ID : 1
Format : MPEG Audio
Format version : Version 2
Format profile : Layer 3
Mode : Joint stereo
Mode extension : MS Stereo
Codec ID : A_MPEG/L3
Codec ID/Hint : MP3
Duration : 2 h 34 min
Bit rate mode : Constant
Bit rate : 96.0 kb/s
Channel(s) : 2 channels
Sampling rate : 22.05 kHz
Compression mode : Lossy
Stream size : 106 MiB (15%)
Title : ☻rDX☻
Writing library : LAME3.99.5
Language : English
Default : Yes
Forced : No

http://www.imdb.com/title/tt5970844




Sharing Widget


No Comments For This Torrent . Be The First to Comment

You must Login to Comment . Click Here to Login

Menu 1

Some content in menu 1.

Thugs Of Hindostan 2018 Hindi Movies PDVDRip x264 Clean Audio AAC New (Size: 724.8 MB)
  Thugs Of Hindostan 2018 Hindi Movies PDVDRip x264 Clean Audio AAC New 724.8 MB
tracker name
udp://tracker.leechers-paradise.org:6969/announce
udp://zer0day.ch:1337/announce
udp://open.demonii.com:1337/announce
udp://tracker.coppersurfer.tk:6969/announce
udp://exodus.desync.com:6969/announce
µTorrent compatible trackers list

Relative Torrents

Torrent Name Size Age SEED LEECH
Indignation 2016 720p BluRay H264 AAC
Posted by    Trige   in   Movies
1.4 GB 12 minutes 373 726
Vanishing On 7th Street 2010 1080p BluRa x264 DTS-FGT
Posted by    Trige   in   Movies
7.9 GB 12 minutes 423 591
The Apprentice UK S14E07 Urban Gardening1080p HDTV h264-PLUTONiUM
Posted by    Trige   in   TV
2.3 GB 12 minutes 167 457
Coronation Street 2018 11 14 Part 1 WEB 264-KOMPOST
Posted by    Trige   in   TV
242.0 MB 12 minutes 177 613
211 Rapina In Corso 2018 iTALiAN AC3 BDRp XviD-CB01 avi
Posted by    warama3andek   in   Movies
1.3 GB 18 minutes 534 963